It looks like you're using an Ad Blocker.

Please white-list or disable AboveTopSecret.com in your ad-blocking tool.

Thank you.

 

Some features of ATS will be disabled while you continue to use an ad-blocker.

 

Burning a music cd

page: 1
0

log in

join
share:

posted on Jan, 2 2006 @ 11:14 AM
link   
How can we burn a music CD? I always got error msg "Cue Sheet: Line 3 - Invalid WAVE format.", check the cue file, there is nothing special, any idea why?

"Cue Sheet: Line 3 - Invalid WAVE format."
I get that message using Daemon Tools (an iso/bin executor)


any way around this?

here's the cue sheet


PERFORMER "Rachmaninov, Sergei"
TITLE "Rachmaninov plays Rachmaninov: The 4 Piano Concertos, Paganini Rhapsody, Disc 2"
FILE "CDImage.ape" WAVE
TRACK 01 AUDIO
TITLE "Concerto No 2, Op. 18 in C min//Moderato"
PERFORMER "Rachmaninov, Sergei"
INDEX 01 00:00:00
TRACK 02 AUDIO
TITLE "Concerto No 2, Op. 18 in C min//Adagio sostenuto"
PERFORMER "Rachmaninov, Sergei"
INDEX 00 09:48:41
INDEX 01 09:50:40
TRACK 03 AUDIO
TITLE "Concerto No 2, Op. 18 in C min//Allegro scherzando"
PERFORMER "Rachmaninov, Sergei"
INDEX 00 20:41:09
INDEX 01 20:43:07
TRACK 04 AUDIO
TITLE "Concerto No 3, Op. 30 in D min//Allegro ma non tanto"
PERFORMER "Rachmaninov, Sergei"
INDEX 00 31:43:71
INDEX 01 31:45:71
TRACK 05 AUDIO
TITLE "Concerto No 3, Op. 30 in D min//Intermezzo: Adagio"
PERFORMER "Rachmaninov, Sergei"
INDEX 00 45:43:49
INDEX 01 45:45:48
TRACK 06 AUDIO
TITLE "Concerto No 3, Op. 30 in D min//Finale: Alla breve"
PERFORMER "Rachmaninov, Sergei"
INDEX 00 54:25:11
INDEX 01 54:27:10


[edit on 1-2-2006 by websurfer]




posted on Jan, 2 2006 @ 11:33 AM
link   
I just use Nero.

Click the drop down and say hey this is a CD not a DVD

then click data> music cd


you're trying to make an .iso out of them and then burn them to a cd using daemon tools?


thought that was just for games and stuff


if you can get Nero I would.



posted on Jan, 2 2006 @ 11:41 AM
link   
********************Warning*********************************
All programs listed and links provided to them are free and LEGAL or free to try
*******************Warning**********************************



It would help a lot if you told us alittle about your computer.

What is the cpu and how much ram?
What burning program r u using?-WMP/Nero....
Is the music copy protected?- try using Blindwrite-it is a free download-15 days and will copy anything!

BTW,
don't laugh, but if u have windows XP, you can download media player 10 which can rip music to your harddrive and other devices.

Here is a linky:

www.download.com...

Please be clear, that this is a free/legal download folkes.

There are many free media burning programs out there.

Here is a link to many programs. download and try them till u find one u really like.

Hope this helps.

BTW2
a Wave,WMP,Mov are format types. A MP3 is a compressed file-ie a whole disk = 25 megs or so. Why is it such a big deal-if you have limited disk or portable space, 25 megs is better thans 100"S of megs.

It is easy to convery a file type to another with free/legal programs out there.
I will look 4 a few 4 u.

Here is a list of converting programs that can convert your ape format into a more windows friendly wave/wmp.

www.google.com...

Sorry, yes this post is going on 4 ever, but it has good info and links.








[edit on 1/2/2006 by mrmonsoon]

[edit on 1/2/2006 by mrmonsoon]

[edit on 1/2/2006 by mrmonsoon]



posted on Jan, 2 2006 @ 12:16 PM
link   
I don't know squat about computers, but I just wanted to say good song list!



posted on Jan, 2 2006 @ 12:37 PM
link   
You're trying to burn a Monkey's Audio file, to a audio CD, using Daemon Tools? I'd convert them to mp3 or wav, then try burning them using Burnatonce (free) to do it normally.

I THINK, the error is because you are calling an APE (Monkey's Audio) file as WAVE, and it cant convert it to WAV to burn it to the Audio CD.




top topics
 
0

log in

join